Сайт | Скачать | Видео | Wiki

Автор Тема: Установка и запуск Richy глазами неофита.  (Прочитано 11363 раз)

0 Пользователей и 1 Гость просматривают эту тему.

Оффлайн krasnyh

  • Ветеран
  • *****
  • Сообщений: 2944
  • Репутация: +93/-1
Re: Установка и запуск Richy глазами неофита.
« Ответ #345 : 31 Март 2020, 17:52:06 »
mpv --hwdec=vdpau /mnt/sdb4/out.mp4
Параметр включает аппаратное ускорение http://forum.puppyrus.org/index.php?topic=17445.msg163606#msg163606.

Оффлайн Neyel

  • Ветеран
  • *****
  • Сообщений: 933
  • Репутация: +23/-0
Re: Установка и запуск Richy глазами неофита.
« Ответ #346 : 31 Март 2020, 18:23:23 »
По-прежнему тормозит. ИМХО какие-то косяки были при компиляции

Оффлайн Neyel

  • Ветеран
  • *****
  • Сообщений: 933
  • Репутация: +23/-0
Re: Установка и запуск Richy глазами неофита.
« Ответ #347 : 01 Апрель 2020, 10:30:26 »
Пока займусь пересборкой архива multimedia  :) Перекомпилю mplayer с русским языком, учту эти замечания, добавлю недостающие библиотеки, добавлю mesa и LLVM
« Последнее редактирование: 01 Апрель 2020, 10:32:45 от Neyel »

Оффлайн Neyel

  • Ветеран
  • *****
  • Сообщений: 933
  • Репутация: +23/-0
Re: Установка и запуск Richy глазами неофита.
« Ответ #348 : 01 Апрель 2020, 15:36:50 »
multimedia.tar.gz. Содержимое - mpv, mplayer,ffmpeg + mesa + LLVM + регулятор громкости. Распаковать в папку BB_32/modules/. Три варианта воспроизведения - mpv, mplayer, ffplay. Вообщем проверьте  :)

Онлайн DdShurick

  • Это Риччи
  • Модератор
  • Ветеран
  • ****
  • Сообщений: 7668
  • Репутация: +174/-2
  • Старый чайник
Re: Установка и запуск Richy глазами неофита.
« Ответ #349 : 01 Апрель 2020, 16:58:22 »
Распаковать в папку BB_32/modules/.
Я сделал как всегда по своему:
Код
bash-4.4# tar xzf multimedia.tar.gz
bash-4.4# mkdir M
bash-4.4# cd M
bash-4.4# ls -1 | while read M; do unsquashfs $M; cp -a squashfs-root/* ../M/; rm -r squashfs-root; done
bash-4.4# cd ../
bash-4.4# mksquashfs M/ Media-Neyel.xzm -comp xz -Xbcj x86
Получился большой модуль-контейнер. А вот его уже в папку BB_32/modules/
Моноблок Lenovo IdeaCentre c200 (Intel Atom D525, Intel GMA 3150) Richy64
Netbook Acer 722 c6ckk (AMD C-50 Ontario, Radeon HD 6250) Simply p8
Nettop Asus Eee Box PC EB1007 (Intel Atom D425, Intel GMA 3150) Richy32

Онлайн DdShurick

  • Это Риччи
  • Модератор
  • Ветеран
  • ****
  • Сообщений: 7668
  • Репутация: +174/-2
  • Старый чайник
Re: Установка и запуск Richy глазами неофита.
« Ответ #350 : 01 Апрель 2020, 17:17:30 »
Код
# mpv Zvezdnye.Vojny.02.2002.HDRip-AVC.H.264.2\,18\ Gb.RG.Films.mkv 
 (+) Video --vid=1 (*) (h264 1280x544 23.976fps)
 (+) Audio --aid=1 (*) (ac3 6ch 48000Hz)
 (+) Subs  --sid=1 (*) (ass)
     Subs  --sid=2 (ass)
[vo/gpu/opengl] GLX not found.
Failed to open VDPAU backend libvdpau_va_gl.so: cannot open shared object file: No such file or directory
[vo/vdpau] Error when calling vdp_device_create_x11: 1
[vo/xv] Warning: this legacy VO has bad quality and performance, and will in particular result in blurry OSD and subtitles. You should fix your graphics drivers, or not force the xv VO.
[sub/ass] can't find selected font provider
AO: [pulse] 48000Hz 5.1(side) 6ch float
VO: [xv] 1280x544 yuv420p

Нет речевого сопровождения mkv, очень тихое mp4
===========================================================================

# mplayer Zvezdnye.Vojny.02.2002.HDRip-AVC.H.264.2\,18\ Gb.RG.Films.mkv
MPlayer 1.4-9.2.0 (C) 2000-2019 MPlayer Team
225 аудио & 465 видео кодеков

Воспроизведение Zvezdnye.Vojny.02.2002.HDRip-AVC.H.264.2,18 Gb.RG.Films.mkv.
libavformat version 58.27.102 (internal)
Обнаружен libavformat формат файла!
[lavf] stream 0: video (h264), -vid 0
[lavf] stream 1: audio (ac3), -aid 0
[lavf] stream 2: subtitle (ssa), -sid 0
[lavf] stream 3: subtitle (ssa), -sid 1
VIDEO:  [H264]  1280x544  0bpp  23.976 fps    0.0 kbps ( 0.0 kbyte/s)
Failed to open VDPAU backend libvdpau_va_gl.so: cannot open shared object file: No such file or directory
[vdpau] Error when calling vdp_device_create_x11: 1
==========================================================================
Открываю декодер видео: [ffmpeg] FFmpeg's libavcodec codec family
libavcodec version 58.51.100 (internal)
Выбран видеокодек: [ffh264] vfm: ffmpeg (FFmpeg H.264)
==========================================================================
Информация о клипе:
 encoder: libebml v1.2.3 + libmatroska v1.3.0
 creation_time: 2013-12-20T17:35:16.000000Z
Load subtitles in ./
==========================================================================
Открываю декодер аудио: [ffmpeg] FFmpeg/libavcodec audio decoders
[ac3 @ 0x1565140]Channel layout '5.1(side)' with 6 channels does not match specified number of channels 2: ignoring specified channel layout
AUDIO: 48000 Hz, 2 ch, floatle, 384.0 kbit/12.50% (ratio: 48000->384000)
Выбран аудиокодек: [ffac3] afm: ffmpeg (FFmpeg AC-3)
==========================================================================
[AO OSS] инициализация аудио: Не могу открыть аудиоустройство /dev/dsp: No such file or directory
AO: [alsa] 48000Hz 2ch floatle (4 bytes per sample)
Начало воспроизведения...
Movie-Aspect - 2.35:1 - выполняю предварительное масштабирование
для коррекции соотношения сторон фильма.
VO: [xv] 1280x544 => 1280x544 Planar YV12

Изредка краткие подвисания
============================================================================

# ffplay Zvezdnye.Vojny.02.2002.HDRip-AVC.H.264.2\,18\ Gb.RG.Films.mkv
ffplay: /usr/lib/libp11-kit.so.0: no version information available (required by /usr/lib/libgnutls.so.30)
ffplay version 4.2.2 Copyright (c) 2003-2019 the FFmpeg developers
  built with gcc 9.2.0 (GCC)
  configuration: --prefix=/usr --libdir=/usr/lib --shlibdir=/usr/lib --docdir=/usr/doc/ffmpeg-4.2.2/html --mandir=/usr/man --disable-debug --enable-shared --disable-static --enable-gpl --enable-version3 --enable-avresample --arch=i586 --disable-encoder=aac --enable-libfontconfig --enable-libfreetype --enable-libfribidi --enable-gnutls --enable-libbluray --enable-libcaca --enable-libcdio --enable-libopus --enable-libspeex --enable-libssh --enable-libtheora --enable-libv4l2 --enable-libvorbis --enable-libvpx --enable-libwebp --enable-libmp3lame --enable-opencl --enable-opengl --enable-libopenjpeg --enable-libpulse --enable-libsmbclient --enable-libwavpack
  libavutil      56. 31.100 / 56. 31.100
  libavcodec     58. 54.100 / 58. 54.100
  libavformat    58. 29.100 / 58. 29.100
  libavdevice    58.  8.100 / 58.  8.100
  libavfilter     7. 57.100 /  7. 57.100
  libavresample   4.  0.  0 /  4.  0.  0
  libswscale      5.  5.100 /  5.  5.100
  libswresample   3.  5.100 /  3.  5.100
  libpostproc    55.  5.100 / 55.  5.100
Failed to initialize a hardware accelerated renderer: Couldn't find matching render driver
Input #0, matroska,webm, from 'Zvezdnye.Vojny.02.2002.HDRip-AVC.H.264.2,18 Gb.RG.Films.mkv':
  Metadata:
    encoder         : libebml v1.2.3 + libmatroska v1.3.0
    creation_time   : 2013-12-20T17:35:16.000000Z
  Duration: 02:22:27.94, start: 0.000000, bitrate: 2194 kb/s
    Stream #0:0: Video: h264 (High), yuv420p(progressive), 1280x544 [SAR 1:1 DAR 40:17], 23.98 fps, 23.98 tbr, 1k tbn, 47.95 tbc (default)
    Stream #0:1: Audio: ac3, 48000 Hz, 5.1(side), fltp, 384 kb/s (default)
    Stream #0:2: Subtitle: ass (default)
    Stream #0:3: Subtitle: ass

Нет речевого сопровождения mkv, очень тихое mp4
Моноблок Lenovo IdeaCentre c200 (Intel Atom D525, Intel GMA 3150) Richy64
Netbook Acer 722 c6ckk (AMD C-50 Ontario, Radeon HD 6250) Simply p8
Nettop Asus Eee Box PC EB1007 (Intel Atom D425, Intel GMA 3150) Richy32

Оффлайн Neyel

  • Ветеран
  • *****
  • Сообщений: 933
  • Репутация: +23/-0
Re: Установка и запуск Richy глазами неофита.
« Ответ #351 : 01 Апрель 2020, 17:49:23 »
У вас он стремится открыть другую билиотеку vdpau:
Failed to open VDPAU backend libvdpau_va_gl.so: cannot open shared object file: No such file or directory
у меня:
Failed to open VDPAU backend libvdpau_nouveau.so: cannot open shared object file: No such file or directory
Насчёт речевого сопровождения в mkv - и у меня тоже самое, а mp4 нормально

Оффлайн krasnyh

  • Ветеран
  • *****
  • Сообщений: 2944
  • Репутация: +93/-1
Re: Установка и запуск Richy глазами неофита.
« Ответ #352 : 01 Апрель 2020, 17:51:33 »
Ну так и видеокарты разные - интел и нвидиа.

Оффлайн Neyel

  • Ветеран
  • *****
  • Сообщений: 933
  • Репутация: +23/-0
Re: Установка и запуск Richy глазами неофита.
« Ответ #353 : 01 Апрель 2020, 18:11:00 »
Изредка краткие подвисания
То есть mplayer лидирует? (у него меньше всего ошибок)

Оффлайн Neyel

  • Ветеран
  • *****
  • Сообщений: 933
  • Репутация: +23/-0
Re: Установка и запуск Richy глазами неофита.
« Ответ #354 : 02 Апрель 2020, 10:44:49 »
Вот мои результаты:
mpv - mkv нет речевого сопровождения, mp4 тормозит
mplayer - mkv - нормально, mp4 нормально
ffplay - mkv нет речевого сопровождения, mp4 нормально

Оффлайн Neyel

  • Ветеран
  • *****
  • Сообщений: 933
  • Репутация: +23/-0
Re: Установка и запуск Richy глазами неофита.
« Ответ #355 : 02 Апрель 2020, 11:26:58 »
Вот файлы, с которыми тестил - mkv и mp4

Оффлайн Neyel

  • Ветеран
  • *****
  • Сообщений: 933
  • Репутация: +23/-0
Re: Установка и запуск Richy глазами неофита.
« Ответ #356 : 02 Апрель 2020, 11:47:16 »
Итак, подытожим. Архив распаковать в папку BB32/modules, файлы с которыми я тестил - mkv и mp4,результаты:
mpv - mkv нет речевого сопровождения, mp4 тормозит
mplayer - mkv - нормально, mp4 нормально
ffplay - mkv нет речевого сопровождения, mp4 нормально

результаты DdShurick - http://forum.puppyrus.org/index.php?topic=22381.msg168788#msg168788

У кого есть возможность - проверьте у себя  :)

Онлайн DdShurick

  • Это Риччи
  • Модератор
  • Ветеран
  • ****
  • Сообщений: 7668
  • Репутация: +174/-2
  • Старый чайник
Re: Установка и запуск Richy глазами неофита.
« Ответ #357 : 02 Апрель 2020, 13:56:19 »
Тест *.avi:
Код
# mpv martinko.avi 
 (+) Video --vid=1 (mpeg4 720x544 25.000fps)
 (+) Audio --aid=1 (mp3 2ch 48000Hz)
[vo/gpu/opengl] GLX not found.
Failed to open VDPAU backend libvdpau_va_gl.so: cannot open shared object file: No such file or directory
[vo/vdpau] Error when calling vdp_device_create_x11: 1
[vo/xv] Warning: this legacy VO has bad quality and performance, and will in particular result in blurry OSD and subtitles. You should fix your graphics drivers, or not force the xv VO.
AO: [pulse] 48000Hz stereo 2ch float
VO: [xv] 720x544 yuv420p
AV: 00:00:00 / 00:10:30 (0%) A-V:  0.000 Dropped: 4
[vo/xv] X11 can't keep up! Waiting for XShm completion events...

# mplayer martinko.avi
MPlayer 1.4-9.2.0 (C) 2000-2019 MPlayer Team
225 аудио & 465 видео кодеков

Воспроизведение martinko.avi.
libavformat version 58.27.102 (internal)
Обнаружен AVI формат файла!
[aviheader] Найден видео поток, -vid 0
[aviheader] Найден аудио поток, -aid 1
VIDEO:  [XVID]  720x544  12bpp  25.000 fps  4275.5 kbps (521.9 kbyte/s)
Failed to open VDPAU backend libvdpau_va_gl.so: cannot open shared object file: No such file or directory
[vdpau] Error when calling vdp_device_create_x11: 1
==========================================================================
Открываю декодер видео: [ffmpeg] FFmpeg's libavcodec codec family
libavcodec version 58.51.100 (internal)
Выбран видеокодек: [ffodivx] vfm: ffmpeg (FFmpeg MPEG-4)
==========================================================================
Информация о клипе:
 Software: VirtualDubMod 1.5.4.1 (build 2178/release)
Load subtitles in ./
==========================================================================
Открываю декодер аудио: [ffmpeg] FFmpeg/libavcodec audio decoders
AUDIO: 48000 Hz, 2 ch, floatle, 192.0 kbit/6.25% (ratio: 24000->384000)
Выбран аудиокодек: [ffmp3float] afm: ffmpeg (FFmpeg MPEG layer-3 audio)
==========================================================================
[AO OSS] инициализация аудио: Не могу открыть аудиоустройство /dev/dsp: No such file or directory
AO: [alsa] 48000Hz 2ch floatle (4 bytes per sample)
Начало воспроизведения...
Movie-Aspect не определён - предварительное масштабирование не применяется.
VO: [xv] 720x544 => 720x544 Planar YV12
Movie-Aspect - 1.32:1 - выполняю предварительное масштабирование
для коррекции соотношения сторон фильма.
VO: [xv] 720x544 => 720x544 Planar YV12

# ffplay martinko.avi
ffplay: /usr/lib/libp11-kit.so.0: no version information available (required by /usr/lib/libgnutls.so.30)
ffplay version 4.2.2 Copyright (c) 2003-2019 the FFmpeg developers
  built with gcc 9.2.0 (GCC)
  configuration: --prefix=/usr --libdir=/usr/lib --shlibdir=/usr/lib --docdir=/usr/doc/ffmpeg-4.2.2/html --mandir=/usr/man --disable-debug --enable-shared --disable-static --enable-gpl --enable-version3 --enable-avresample --arch=i586 --disable-encoder=aac --enable-libfontconfig --enable-libfreetype --enable-libfribidi --enable-gnutls --enable-libbluray --enable-libcaca --enable-libcdio --enable-libopus --enable-libspeex --enable-libssh --enable-libtheora --enable-libv4l2 --enable-libvorbis --enable-libvpx --enable-libwebp --enable-libmp3lame --enable-opencl --enable-opengl --enable-libopenjpeg --enable-libpulse --enable-libsmbclient --enable-libwavpack
  libavutil      56. 31.100 / 56. 31.100
  libavcodec     58. 54.100 / 58. 54.100
  libavformat    58. 29.100 / 58. 29.100
  libavdevice    58.  8.100 / 58.  8.100
  libavfilter     7. 57.100 /  7. 57.100
  libavresample   4.  0.  0 /  4.  0.  0
  libswscale      5.  5.100 /  5.  5.100
  libswresample   3.  5.100 /  3.  5.100
  libpostproc    55.  5.100 / 55.  5.100
Failed to initialize a hardware accelerated renderer: Couldn't find matching render driver
Input #0, avi, from 'martinko.avi':0KB vq=    0KB sq=    0B f=0/0   
  Metadata:
    encoder         : VirtualDubMod 1.5.4.1 (build 2178/release)
    IAS1            :
  Duration: 00:10:30.28, start: 0.000000, bitrate: 4474 kb/s
    Stream #0:0: Video: mpeg4 (Advanced Simple Profile) (XVID / 0x44495658), yuv420p, 720x544 [SAR 1:1 DAR 45:34], 4275 kb/s, 25 fps, 25 tbr, 25 tbn, 25 tbc
    Stream #0:1: Audio: mp3 (U[0][0][0] / 0x0055), 48000 Hz, stereo, fltp, 192 kb/s
Моноблок Lenovo IdeaCentre c200 (Intel Atom D525, Intel GMA 3150) Richy64
Netbook Acer 722 c6ckk (AMD C-50 Ontario, Radeon HD 6250) Simply p8
Nettop Asus Eee Box PC EB1007 (Intel Atom D425, Intel GMA 3150) Richy32

Оффлайн Neyel

  • Ветеран
  • *****
  • Сообщений: 933
  • Репутация: +23/-0
Re: Установка и запуск Richy глазами неофита.
« Ответ #358 : 02 Апрель 2020, 18:52:47 »
Изредка краткие подвисания
Failed to open VDPAU backend libvdpau_va_gl.so: cannot open shared object file: No such file or directory
Может быть, этот модуль поможет - vdpau.xzm? (там содержится libvdpau_va_gl.so) Скачал с pkgs.org, перепаковал в xzm, проверил зависимости - вроде всё на месте (хотя думаю вряд ли поможет, но попробовать можно :) )

Оффлайн sfs

  • Администратор
  • Ветеран
  • *****
  • Сообщений: 28919
  • Репутация: +195/-0
    • PuppyRus-A
Re: Установка и запуск Richy глазами неофита.
« Ответ #359 : 02 Апрель 2020, 19:30:20 »
VDPAU будет только с меса или проприетарными видеодровами